LV. 18
GP 33

【情報】Game Booster 3.5 Beta 又一款免費遊戲錄影工具

樓主 不臭那是屁 jerry71
GP9 BP-

作者標示-非商業性

本授權條款允許使用者重製、散布、傳輸以及修改著作,但不得為商業目的之使用。使用時必須按照著作人指定的方式表彰其姓名。

Game Booster v3.5.0 Beta
 
官方介紹
Try Version 3.5 beta to experience fantastic new features in advance+ Higher FPS and less lags+ Added video recording function when playing 3D games+ Added screenshot capture function when playing 3D games+ Added voice recording function when playing games+ Added more supported languages+ Fixed bugs in the previous version
 
軟體介面

綠框處 功能開關
紅框處 錄影品質設定
籃框處 錄影音源設定
Ctrl + Alt + V 為預設錄影快捷鍵
Video resolution 為錄影畫面比例
 
功能實測 遊戲錄影
遊戲畫面為 1600x900 轉檔為1280x720 上傳
 
原始影片資訊(即遊戲錄影原始檔)
yzzy.exe 2012-4-30-13-6-36-262.mkv
  General
    Complete name : yzzy.exe 2012-4-30-13-6-36-262.mkv
    Format : Matroska
    Format version : Version 1
    File size : 133 MiB
    Duration : 1mn 49s
    Overall bit rate : 10.2 Mbps
    Encoded date : UTC 2012-04-30 13:06:36
    Writing library : DirectShow Matroska Muxer
  Video #1
    ID : 1
    Format : MPEG-4 Visual
    Format profile : Simple@L1
    Format settings, BVOP : No
    Format settings, QPel : No
    Format settings, GMC : No warppoints
    Format settings, Matrix : Default (H.263)
    Codec ID : XVID
    Codec ID/Hint : XviD
    Duration : 1mn 49s
    Bit rate : 9 853 Kbps
    Width : 1 600 pixels
    Height : 900 pixels
    Display aspect ratio : 16:9
    Frame rate mode : Variable
    Frame rate : 20.000 fps
    Color space : YUV
    Chroma subsampling : 4:2:0
    Bit depth : 8 bits
    Scan type : Progressive
    Compression mode : Lossy
    Bits/(Pixel*Frame) : 0.342
    Stream size : 129 MiB (97%)
    Writing library : Lavc52.41.0
    Language : English
    Default : Yes
    Forced : No
  Audio #2
    ID : 2
    Format : MPEG Audio
    Format version : Version 1
    Format profile : Layer 3
    Mode : Joint stereo
    Mode extension : MS Stereo
    Codec ID : 55
    Codec ID/Hint : MP3
    Duration : 1mn 49s
    Bit rate mode : Constant
    Bit rate : 128 Kbps
    Channel(s) : 2 channels
    Sampling rate : 44.1 KHz
    Compression mode : Lossy
    Delay relative to video : 438ms
    Stream size : 1.68 MiB (1%)
    Language : English
    Default : Yes
    Forced : No
 
個人使用心得
優點 設定簡單上手、錄影畫質不差、省資源不LAG、免費軟體。
缺點 無細部設定、無指定區塊錄影。
9
-
未登入的勇者,要加入討論嗎?
板務人員:

1321 筆精華,02/07 更新
一個月內新增 1
歡迎加入共同維護。


face基於日前微軟官方表示 Internet Explorer 不再支援新的網路標準,可能無法使用新的應用程式來呈現網站內容,在瀏覽器支援度及網站安全性的雙重考量下,為了讓巴友們有更好的使用體驗,巴哈姆特即將於 2019年9月2日 停止支援 Internet Explorer 瀏覽器的頁面呈現和功能。
屆時建議您使用下述瀏覽器來瀏覽巴哈姆特:
。Google Chrome(推薦)
。Mozilla Firefox
。Microsoft Edge(Windows10以上的作業系統版本才可使用)

face我們了解您不想看到廣告的心情⋯ 若您願意支持巴哈姆特永續經營,請將 gamer.com.tw 加入廣告阻擋工具的白名單中,謝謝 !【教學】